Extract Bin File

More info here. The following sections list the binary file formats and file extensions from which xdmp:document-filter can extract metadata and, depending on the format, text from. Does someone of you know that ILO bin file for Vers. Maintenance update. why my vista business edition cant open a "application. I figured if I cannot retrieve my Open Office files, then I will re-install Open Office. Before I show you how to do just that for free, I would like to start with a short description of the Bin format and alternatives to extracting the file contents to the system. On Wednesday, the Central Intelligence Agency released more than 470,000 files seized at Osama bin Laden's Abbottabad, Pakistan compound after the May 2011 raid that killed him. I checked the size of soffice. BIN are created when a mother is hooked up to a fetal monitor. Initially CUE/BIN file format was introduced by CDRWIN audio disk authoring software and became de-facto standard for audio CD creation. GNU gzip home page, where you can find the latest gzip source code, documentation, and development information. When you open or save a file most programs present a list of "filters" in the "Files of Type" drop down list in the standard file open/save dialog for the types of files the program knows about. Now go back to the Extract tab, and click the … button to choose your update. BIN file format is actually designed to store information in a binary format. ∟ Open Files in Binary Mode ∟ binmode() - Opening Files for Binary Input. The term "binary" with files relates mostly to the fact that they can contain bytes of any value, and line-ends (Carriage Return+Newline in the DOS/Windows world) are not to be translated. From the server-side code, this binary data is available through the FileUpload control's PostedFile. iso file, also known as a image, so that u can run it. The next step is to add any LDF file backups and/or detached LDF files containing the information you need to view. If none of the above programs will open your JSF file, check the file type to make sure you have a program that can open that type of file. Binary storage of data inside files is commonly used used over ASCII to pack data much more densely and provide much faster access. Instead of trying to open CRDOWNLOAD file you can also find an original link from where you downloaded the file and download it again. The syntax, as it applies to binary files is: Get [#]filenumber, [byte position], varname. There are various methods for extracting the BIOS file from the installation files. To open and view the LDF file using ApexSQL Log: Connect to the database that the LDF file belongs to. Run AnyBurn, and click "Browse / Extract image file". ZFS is an enterprise-ready open source file system, RAID controller, and volume manager with unprecedented flexibility and an uncompromising commitment to data integrity. These images must be either written to a disc or opened using a virtual CD/DVD disc program. DLL files usually contain code that is shared by many different applications. ECM), click on File-> Run ISO in the main program window and select the image. Note that the file is always opened in binary mode. bin extension file opener. This is the only method to get the payload. BIN extension, or if you want to find a way to convert the. BZ2, XAR, ZIP files (for the complete list please see 'Supported File Types' section below). bin file, or binary file, can be achieved in several ways, including using the MagicISO program. I’ve had a tool for a while that extracts the transforms and cabinets from a. This is especially true as the majority will contain little or no clues if opened in a text editor, and much depends on the location of the file as to what application it belongs to. Loc(fileNumber) Returns the current read/write position within an open file. Also for files over 2GB. To extract the data from the PDF file we should do the following steps. Store binary components of the applications. P34, RYAN1F38. gz archive binary to the current directory. exe script in the new window. Downloading or distributing copyrighted material is prohibited by law. bin file extension is most commonly associated with compressed binary files. If so that Bin file is a disc image file like an ISO file and the Bin file needs to be mounted on a virtual drive so you can install the game. The Get Statement. This options also works if you set the files to go to the Recycle Bin. Also, check to see if the path to the file concerned exists (Micro Focus). EBADF or EINVAL fd is not open for writing. BINARY Configure the opened channel with the -translation binary option. Previously I discussed conceptually how to extract files from a patch, mentioning that the transforms contained within patches are stored as sub-storages and the cabinets that contain the files are stored as sub-streams. On Wednesday, the Central Intelligence Agency released more than 470,000 files seized at Osama bin Laden's Abbottabad, Pakistan compound after the May 2011 raid that killed him. Uncompress, unzipping tool. To know how to continue reading the article. 519 GB: Caanoo - Applications: 51 Files : 118. An ISO image is an archive file (a. Binary file. This stores all the important data to create a tune. bin using "OfficeMalScanner inflate" or any zip tool. This is especially true as the majority will contain little or no clues if opened in a text editor, and much depends on the location of the file as to what application it belongs to. This time round, we are going to cover the easy way to mount an iso, bin or cue file in Ubuntu without having to hit the terminal every time. bin extension files on your Android device. MagicISO allows the users to open/edit/extract bin files. If you know the application which can open ODIN file then run it and see if there is a File->Open option in the application main menu. I/O with smaller files is faster, too, since there are fewer bytes to move. Try refreshing the page. fd file onto a USB. These files are used by many different computer applications and for a variety of purposes. gz archive binary to the current directory. (Binary, in computer jargon, means data that the computer can read, but that isn't in a format suitable for humans to look at. Store binary components of the applications. Writing data to a file Problem. All options are accessible from dialog boxes or menu. i noticed that exe file in vista home edtion,the icon is different compare to my business edt. If you know the application which can open ASEC file then run it and see if there is a File->Open option in the application main menu. CUE extension. Since the first task that is performed on a file stream is generally to open a file, these three classes include a constructor that automatically calls the open member function and. Choose an app and click “OK” to open the file. APPEND Set the file pointer to the end of the file prior to each write. You can take the xxxx. Click "Extract one file from installation disk," type the name of the file you want to extract in the "Specify the system file you would like to restore" box, and then click Start. There are quite a few tools out there, I would suggest Dolphin, the emulator, it will allow you to extract files from discs. GNU Midnight Commander (mc) is a directory browser/file manager for Unix-like operating systems. Create a CUE file (if you don't have one). 7 (64-bit) June 23, 2020. To get the latest file definitions, just download and extract the TrIDDefs. BIN or CD/DVD Binary Image Format file extension. If you have a file container encrypted by TrueCrypt: Create a new virtual disk file (VHD). The term "binary file" is often used as a term meaning "non-text file". file open mode : File Stream in C Programming In this tutorial we are going to review all file opening modes in C Programming Language (File Handling). How bin Laden got the videos remains a mystery and is open to debate, as bin Laden didn’t have access to the internet at his compound. This procedure is intended for use with special devices that can be opened by only one process, such as "COM1" in Windows. DOC files use a proprietary binary format and are used by Microsoft Word 2003 and earlier. This is where the intermediate files and the extracted file system will be stored. Text/binary files are common ways of storing data as opposed to databases or regular Excel files. bin" BINARY TRACK 01 MODE1/2352 INDEX 01 00:00:00. Basically bin files and ipe file are the same thing from the point of view of the Switch operating system (the ipe file is a package that contain Boot ROM, boot and system bin files that are decompressed [**] - so it is a package that contain compressed files - by the Switch during the upgrade procedureindeed you need at least two times the. In short, Universal Extractor is a program to extract all kind of archive files such as ACE archive, ARC archive, ARJ archive, ASpack compressed file, BIN/CUE CD-ROM image, bzip2 archive, CPIO compressed file,Debian package, DiscJuggler CD-ROM image, Encoded files, Gentee package, gzip archive, IMG floppy disk image, Inno Setup package. PhotoLibrary ( PhotoLibraryID INT IDENTITY (1 , 1 ) PRIMARY KEY, ImageName VARCHAR (100), Photo VARBINARY (MAX)) GO. Right-click and choose Restore to recover the data to its original location. InputStream property. File type mode - md5deep can process only files of a certain type, such as regular files, block devices, etc. Many people use the MS Visio as a business graphic creation program. Now you can download WinISO Standard 6 for free. Jika Anda baru saja mengunduh berkas citra dari program atau permainan lama, Anda mungkin kesulitan membukanya di komputer Anda. bin is on a PC. Maintenance update. You want the open command, i. I could not stand how soffice. Once done, extract contents using "ExtractNow" (Free) to a seperate folder. Try refreshing the page. There are many websites offering file conversion of BIN to IMG files "Online" - without having to download a special program to your computer. CUE extension. A pop-up let us choose extraction mode: Explore (choose and extract) or Standard (extract), plus options such as Memory scan loop and Recurse subfolders. Also, to extract in a specific directory. MagicISO is also a BIN extractor. Frhed is an binary file editor for Windows. exe, its just a "blank"/default BIOS file, that the. By default, the files and folders will be extracted to the same location the RAR file is in – click OK to begin that process. Besides being used by CD authoring software CUE files were frequently used as a playlists but now their use is diminished due to availability of streaming services like Spotify, Amazon Music and Apple Music. The number of significant digits in the relative record number is larger than the size of the relative key data item described for that file. 519 GB: Caanoo - Applications: 51 Files : 118. As usual, run “help start” to learn more about its options. regsvr32 adtschema. Ars Scholae Palatinae Registered: Jan 5, 2008. This section describes steps on how to open file for binary input using open(), binmode() and read() functions. ArcInfo has two commands that can be used to export grids to binary files so they can easily be imported into RiverTools. We train our employees in the best practices for engaging in open source communities and the importance of open governance, and we empower them to create open source projects that solve their business and personal problems. That is, the file is not in any externally identifiable format so that any program that wanted to could look for certain data at a certain place within the file. If you don't know the application which can open ASEC file then try to search for "ASEC wiki", "application to open ASEC file" or "ASEC file" queries in the search engine you like. The first thing to do is remove the check mark by the option Always Use the Selected Program to Open This Kind of File. trunc: truncate: Any contents that existed in the file before it is open are discarded. This options also works if you set the files to go to the Recycle Bin. When Windows does not recognize a filename extension, you receive the following message: Windows cannot open this file: example. This allows you to view, create, and extract zip files without having. Learn about CUE/BIN Disk Image File Format; Executable binary files for Unix based operating systems. You can access the recycle bin folder on the external hard drive and delete the files from here. You can find this information in the file’s properties. If you need to send large files to your colleagues, friends or customers who may not have archiving tool you can easily create self-extracting archive that can be extracted by simple double click. AES Crypt is an advanced file encryption utility that integrates with the Windows shell or runs from the Linux command prompt to provide a simple, yet powerful, tool for encrypting files using the Advanced Encryption Standard (AES). So, what can you do with this you ask? Well if you ever deleted a system app ( /system/app/*. exe, its just a "blank"/default BIOS file, that the. Ability to directly add/delete/rename/extract file(s) within image files. Click browse button and navigate to the BIN / CUE file you want to extract, and Click "Open" to select one of them. Going forward, all. Bin is an image format, that is commonly used on the Internet. Includes tests and PC download for Windows 32 and 64-bit systems completely free-of-charge. A pop-up let us choose extraction mode: Explore (choose and extract) or Standard (extract), plus options such as Memory scan loop and Recurse subfolders. Osama bin Laden’s files left behind an imprint of a. Make sure you compare the MD5 hash value of the BIN file you got against the MD5 hash value found in the Cisco website. This is the best recovery tool available in the market to find and extract files deleted from recycle bin. You would also be able to extract, open and also convert the BIN files to an APK file format using these applications. BINARY Configure the opened channel with the -translation binary option. bin: 2011-07-04 13:24 100 KB 10MB. sit, gzip gz, tar, and many other file archive formats that you may encounter when downloading data from the internet or in emails. File type: Hexadecimal Source What is. To do so, click File --> Open Image File. With xonar's LG Bin Firmware Extractor, we are able to extract the bin files into partitions (the image files for our device). An Open Office Write file is binary as it is a zipped set of XML files, but the XML files inside are considered text files. exe is supposed to modify/fill-up with the info from the card you are trying to patch (from what I remember), so without debugging the thing on the right hardware that BIN file is useless. These files are used by many different computer applications and for a variety of purposes. [box]Refer this article before : What is FILE Pointer ?[/box] File Opening Mode Chart : Mode Meaning fopen Returns if FILE- Exists Not Exists r Reading – NULL […]. That file can have various formats: ROM, BIN, FD, CAP, BIO, WPH and EFI. bin [11173328 bytes used, 5603888 available, 16777216 total] 16384K bytes of processor board System flash (Read ONLY). News October 5th, 2019, Bright Lights. If you need to send large files to your colleagues, friends or customers who may not have archiving tool you can easily create self-extracting archive that can be extracted by simple double click. bin extension files on your Android device. cue file which describes the inside content of the disc image and specifies the program that can open and run it. You then specify a File Name, a Mode, and a File Number. The easiest way to do this is to use write. Ability to directly add/delete/rename/extract file(s) within image files. ArcInfo has two commands that can be used to export grids to binary files so they can easily be imported into RiverTools. MIME is headless when it omits # the top-level header. binary: binary: Operations are performed in binary mode rather than text. These images must be either written to a disc or opened using a virtual CD/DVD disc program. when I tried to extract the. This tool allows to extract and decompress the firmware images packed using the 'brillo' toolset. #3 Sep 4, 2015 gburgue GBAtemp Regular. fd does not reference a. Depending on the size and the number of files stored in the. Note, however, that you can't extract PDFs or. By default, write. Users of systems with disk image creation and mounting applications can try to replace the BIN extension with the ISO extension in case they can't open a BIN file. Intel HEX to BINARY File Converter Utility. exe file folder my system hangs. Bin File: A Binary or BIN file in Debian refers to installation packages that are mostly self-extracting executables for installing software on your system. to be honest i've got the same issue many many times i've downloaded some files. When called with just a. ISO Opener is a free iso extractor for extracting files from the ISO files, this ISO extractor can help you to directly extract all files and folders form the disc image file, so you do not need the virtual CD-ROM, no need to burn DVD/CD discs, just use this program you can easily access the contents of the ISO image file. tar [PATH] wzunzip -d file. Includes tests and PC download for Windows 32 and 64-bit systems completely free-of-charge. 2 Convert the Bin file to an ISO image file. On Wednesday, the Central Intelligence Agency released more than 470,000 files seized at Osama bin Laden's Abbottabad, Pakistan compound after the May 2011 raid that killed him. If you find it. Copy the Payload. 001 file, it began working, showed an elapsed time counter & a progress bar, and after roughly ten percent I got a dialogue box asking me to. , an open may fail if we don't have the correct permissions or the file doesn't exist when opening for reading). Since BIN is a universal format that is not associated with any particular program or application, it often requires additional data files to be opened properly. To extract BIN / CUE file with AnyBurn, please follow the steps, 1. Incorrect file association. The Apache™ Hadoop® project develops open-source software for reliable, scalable, distributed computing. If you don't know the application which can open GZ file then try to search for "GZ wiki", "application to open GZ file" or "GZ file" queries in the search engine you like. Type” regsvr32 dllname. There are four different methods (modes) for opening a file:. ) We're told that numeric data is preceeded by a single byte (maybe the letter "S") that flags it as a number, and that character data is preceeded by four bytes giving the length. Run AnyBurn, and click "Browse / Extract image file". If you don't know the application which can open B01 file then try to search for "B01 wiki", "application to open B01 file" or "B01 file" queries in the search engine you like. If you have a file container encrypted by TrueCrypt: Create a new virtual disk file (VHD). If the file is an OpenXML document (MS Office 2007+), first find and unzip vbaProject. However, the standard doesn't require this behavior, so for predictable results, the best way to get the length of a file is to use a binary stream. Extract the payload. Download the latest version of the top software, games, programs and apps in 2020. Here is a list of 3 free utilities that can mount Bin files onto a virtual drive in Windows 10. WinBin2Iso, free download. csv() includes row names, but these are usually unnecessary and may cause confusion. Declare file stream object. Binary file. com/ultraiso/ Cue file writing format example : FILE "Sample. -- Extract image SQL Server - SQL Server export binary data. The first thing to do is remove the check mark by the option Always Use the Selected Program to Open This Kind of File. It installs, sets itself up as the file handler for those files and then lets you select a source and destination file and format. That is why it is often not easy to open TMP file without knowing what exactly is inside it. Best large file patch to original file size ratio, Original file size: 56,147,853,312 Patch file size: 299,687,049 Patch file reduction over original file size 99. cmd file for just as easy. At first the file wouldn't open. You can add additional parameters if you need these attributes to be dynamic. exe is called: sp49851. The Open instruction used to open the file contains the For Input expression in place of the For Output expression and, rather than the Print command for writing data, the Line Input instruction should be used to read the data. Binary files are mostly the. jnlp€files will open using€Java€Web Start. 7 (64-bit) June 23, 2020. More than 859 downloads this month. cue file, right click and choose "Open with Toast" 3) Change the Destination to "Disc Image" 4) Click the Save button and name and locate the resultant. app: append: All output operations happen at the end of the file, appending to its existing contents. BIN file is a file produce in a Navicare Watchchild labor and delivery system for hospitals. File Filter List. gzip also refers to the associated compressed data format used by the utility. Get Binary v. and to open a binary file for output: Open filename For Binary Access Write As #filenumber. Create a CUE file (if you don't have one). 38 bios file ( to rescue a HP ZD7000 which I killed due to a bad flash) the exe file from HP contains many files eg ntflash. If you always want to open the file type with the selected app, then check the option “Always use this option to open. Now go back to the Extract tab, and click the … button to choose your update. WRONLY Open the file for writing only. Jika Anda baru saja mengunduh berkas citra dari program atau permainan lama, Anda mungkin kesulitan membukanya di komputer Anda. Click Ok to save and exit the Recycle Bin properties. Windows 7 Pro x64 (1), Win7 Pro X64 (2) 2,759 posts. What is all that binary goo I see in your files? Our documents use packages that contain the XML data alongside binary data such as images. --force-read , -f With this option, if mysqlbinlog reads a binary log event that it does not recognize, it prints a warning, ignores the event, and continues. How do you open a. MIME is headless when it omits # the top-level header. By default, write. CUE extension. 13: File not found. External hard drives also have the Recycle Bin folder, and when you delete the files from it, the files will be moved here. Learn how to open bin file on Unix. If you are using a workstation-based client, such as Thunderbird or Outlook, the application should be able to extract and download the attachment automatically. That is, the file is not in any externally identifiable format so that any program that wanted to could look for certain data at a certain place within the file. What probably confused you is the fact that the human-readable data is rounded, and the binary file has a better precision. cpgz and the icon changes, but that's it!! I've searched for extracting tools, downloading "The Unarchiver" app and after initially accepting the. Once done, extract contents using "ExtractNow" (Free) to a seperate folder. Recycle bin in Windows, or Trash in macOS, is somewhere the operating system stores the files you deleted from the computer local disk. CUE file contains tracks information, while the corresponding BIN file contains real track data. You can VBA Read file binary or text data using using the Open operator. Run AnyBurn, and click "Browse / Extract image file". @sctz i tested by myself but bchunk need two file *. dat file that changes. dll” and press enter. Posted: Sat Dec 13, 2014 5:44 pm. Make sure they form a full log chain. This is where the intermediate files and the extracted file system will be stored. All options are accessible from dialog boxes or menu. When you fail to do so, you perform the process of file association, which probably isn’t wise to do at this point. 7-Zip is free software with open source. Open a Terminal application (in the Utilities folder of your Applications folder) and run perl -v to find out which version. File I/O is a five-step process: 1. The function involves obligatory usage of one of the FILE_BIN or FILE_CSV modes. If the cat command is used to list a binary file, the user will get a screen full of garbage that will more often than not change the display characteristics. Open the file with the file stream object. Optional: In the Select additional options section, you can check the User data box and enter a cloud-config file in the text box that appears. Q34,RYAN1F38. You should open it's man page if you haven't already done so using man 2 open command and read trough basics (2 is manual section number, use man man to read more about integrated manual section numbers). Okay, select the ResourceView tab in Visual Studio, right mouse click the resources and select import to import a new resource. Thus the text transfer mode is forced when transferring remote file to/from the internal editor. DOCX files use a newer file format referred to as Open XML, which stores a document as a collection of separate files and folders in a compressed zip package. Basic operation couldn't be easier: Select a file or directory to extract, and then press "Extract. Contains file which can be executed on Unix and Unix-like operating system given that execute permissions are set on the file. For simple archive types, you would use the same type of unzip command that would be used with Zip files. exe file from HP. These commands are GRIDIMAGE and GRIDFLOAT. This is especially true as the majority will contain little or no clues if opened in a text editor, and much depends on the location of the file as to what application it belongs to. These files are used by many different computer applications and for a variety of purposes. The bin file is a binary file, which stores the raw sector-by-sector copies of the ECU/DME data. bin file in years and I believe it has something to do with imaging CD's but I'm not positive. bin Extractor you want. Depending upon the contents of the ZIP file, you may want to unzip, or extract the files within. When used to open a file in a binary mode with buffering, the returned class is a subclass of io. You can find this information in the file’s properties. cue sheet with multiple. Process almost all CD-ROM image file(s) including ISO and BIN. The looks is a little dated just like the other app but it gets the job done. GNU Midnight Commander (mc) is a directory browser/file manager for Unix-like operating systems. Intel HEX to BINARY File Converter Utility. 14: Relative files only. Wow, I am suprised you found a solution in the reply! I have compressed files as. Note that files in the working directory may be deleted!. There are four different methods (modes) for opening a file:. Format BIN adalah jenis berkas lama yang mengandung seluruh informasi dari CD atau. 0_73 in the current directory. A BIN file, with the. Choose the Bin file you wish to convert. At the Import Resource Dialog select "Custom" from the Open as combo box, and "All Files (*. Related Products and Links. Since I changed the code and now there is some bug which I am trying to find. Besides being used by CD authoring software CUE files were frequently used as a playlists but now their use is diminished due to availability of streaming services like Spotify, Amazon Music and Apple Music. Pipes, sockets and non-file devices are opened in binary mode. BIN are created when a mother is hooked up to a fetal monitor. The generated files use a Java package of crosby. To open a file for browsing or editing resources, click the toolbar button or select File > Open [CTRL+O]. Basically bin files and ipe file are the same thing from the point of view of the Switch operating system (the ipe file is a package that contain Boot ROM, boot and system bin files that are decompressed [**] - so it is a package that contain compressed files - by the Switch during the upgrade procedureindeed you need at least two times the. just pointing no action being done yet. When you double click on the BIN file format, it should open with appropriate software program. PBP file) and prepare the extracted files to be ready for use ONLY on the PSP system. Right-click a file with the extension whose association you want to change, and then click Open With. To open the file, use the built-in open() function. dat files or the Device ID for archive2. exe file to its constituent parts have been successful. Small size means less storage space and faster transmission. Extract files from archive online, no installation, safe and free. This application allows you to browse and extract files from various disc image files (CD image files). Would this app follow hyperlink work for me? If i stored the full path & file name in the staff table, how could i code the command button to act on it. BZ2, XAR, ZIP files (for the complete list please see 'Supported File Types' section below). It's a bit tricky to extract the text contained in a binary Word document; however, we've managed it. Store photos and docs online. 7-Zip is free software with open source. When you open or save a file most programs present a list of "filters" in the "Files of Type" drop down list in the standard file open/save dialog for the types of files the program knows about. Besides being used by CD authoring software CUE files were frequently used as a playlists but now their use is diminished due to availability of streaming services like Spotify, Amazon Music and Apple Music. [box]Refer this article before : What is FILE Pointer ?[/box] File Opening Mode Chart : Mode Meaning fopen Returns if FILE- Exists Not Exists r Reading – NULL […]. To know how to continue reading the article. Due to the large number of formats, they are first broken down into general application areas, such as Databases or Multimedia, then each area lists its applicable formats and. bin file, shot back a warning "can't open this type of file. I'm really sorry if this is a totally dumb question, but I'm trying to change the screensaver on my Kindle. It installs, sets itself up as the file handler for those files and then lets you select a source and destination file and format. A BIN file, with the. 75, 28,79, 5. This is the only method to get the payload. Converting ASCII to internal binary representations of data that the computer uses takes a lot of time. My System Specs. The extracted contents will include the “Payload. Finally, when calling up a text file, the eof instruction is used to check whether the end of the file has been reached:. The term "binary" with files relates mostly to the fact that they can contain bytes of any value, and line-ends (Carriage Return+Newline in the DOS/Windows world) are not to be translated. The Get Statement. HexDump lists the contents of a file in hex and ASCII. This app implements a Recycle Bin (also know as Trash) for Android and works with most third party file explorers, but can't help us to recover files deleted previously to app installation and configuration. How do I open. You can get at the backup files using Help > Open Backups in OneNote 2007 or by clicking the Open Backups button on the Backstage menu in OneNote 2010 (click File then Open Backups). Click “Bin to ISO”. Step 1: How to Install Unrar in Linux. BIN or CD/DVD Binary Image Format file extension. Frequently TMP files are just renamed files of other types. 14: Relative files only. , use -O binary). In winXP: Filename before extraction: c3745-adventerprisek9-mz. --force-read , -f With this option, if mysqlbinlog reads a binary log event that it does not recognize, it prints a warning, ignores the event, and continues. Click File menu 6. [box]Refer this article before : What is FILE Pointer ?[/box] File Opening Mode Chart : Mode Meaning fopen Returns if FILE- Exists Not Exists r Reading – NULL […]. WinBin2Iso convert BIN to ISO images. The BinaryReader class is used to read binary data from a file. Users of systems with disk image creation and mounting applications can try to replace the BIN extension with the ISO extension in case they can't open a BIN file. This stores all the important data to create a tune. Find in TEMP folder: Many installers extract the package file into the TEMP directory. iso file, also known as a image, so that u can run it. A file conversion is just a change of the file that was created in one program (BIN file) to a form intelligible for another program (i. To mount the. Most JSF files are Settings Files, but there’s a chance it might be another type. this is my actual BIN FILE. Copy those results into a response here. On Wednesday, the Central Intelligence Agency released more than 470,000 files seized at Osama bin Laden's Abbottabad, Pakistan compound after the May 2011 raid that killed him. Having to repair a corrupted or damaged zip folder can be a pain. Note: This file type can become infected and should be carefully scanned if someone sends you a file with this extension. jfg To open this file, Windows needs to know what program you want to use to open it. Packed Sections First, in relation to C&C1 where each cell is represented by 2 bytes, as the total map size in RA seems to be 128x128 then the binary file for the map which could then be fiddled with and read by third-party editors would be a 128x128x3 byte binary file (=48k). For simple archive types, you would use the same type of unzip command that would be used with Zip files. Perhaps it is the "Process Monitor". Direct random access of a binary file is slow. P31, RYAN1F38. As I discussed in Chapter 14, both OPEN and WITH-OPEN-FILE accept a keyword argument, :element-type, that controls the basic unit of transfer for the stream. fmt file somewhere on your file system. bin', 2); This would open a file from the same directory as the game, and assign its index to the variable "file". A binary file is a computer file that is not a text file. On the off chance that your file affiliations are set up effectively, the application that is intended to open your bin file will open it. To extract the data from the PDF file we should do the following steps. Binary file. bin" BINARY TRACK 01 MODE1/2352 INDEX 01 00:00:00 In th. BIN is a binary file format for which there are many uses and consequently programs that use them. Make sure they form a full log chain. More info here. When called with just a. bin extension is commonly used with CD and DVD backup image files and certain anti-virus programs. trunc: truncate: Any contents that existed in the file before it is open are discarded. Right-click and choose Restore to recover the data to its original location. It is the form which can be interpreted and understood by the computer. cue file, right click and choose "Open with Toast" 3) Change the Destination to "Disc Image" 4) Click the Save button and name and locate the resultant. It includes the storage of fonts and convenient loading of data with Macintosh to the Internet to be transferred to other Mac devices. You can add additional parameters if you need these attributes to be dynamic. File Extract/Convert to ISO on Windows & macOS. BIN file format is actually designed to store information in a binary format. bin to the name of the BIN file you are trying to burn. From the server-side code, this binary data is available through the FileUpload control's PostedFile. We've all deleted files accidentally or simply changed our minds about the necessity of a particular file or folder, so don't be too hard on. bin and it had shrunk down from 180 MB to 15 MB. Click the Red X to close it 8. But when i use ArcGIS to extract same data, the values are like 23. Convert image files to the standard ISO format. The term "binary" with files relates mostly to the fact that they can contain bytes of any value, and line-ends (Carriage Return+Newline in the DOS/Windows world) are not to be translated. GNU Midnight Commander (mc) is a directory browser/file manager for Unix-like operating systems. If you know the application which can open B01 file then run it and see if there is a File->Open option in the application main menu. If none of the above mentioned methods work for you. The file we have here begins with the first # boundary string. app file that you extracted earlier. Also, APPLAUSE database development software. bin file extractor free download - Free File Extractor, Free RAR Extractor, SWF Extractor, and many more programs. Extract it and run Winimage. com or GitHub Enterprise. 7 (64-bit) June 23, 2020. bin file here which is meant to be bootable - how do I put it on a USB? 5 posts komatsu. Step 1: How to Install Unrar in Linux. I don't care about the file format. There are various methods for extracting the BIOS file from the installation files. The EXE file opens in Notepad. There are a few things you need to know about flashing your ECU/DME. I have an Cisco IOS image - a bin file, that a want to extract. Flt is the file extension for the ArcInfo Float Grid format. bin is the firmware image you want to extract, i. Introduction. Yes, unlike smart phones, you can remove files from a computer without worries as it is easy to recover deleted files from Recycle bin or Trash in most cases. Archive Extractor is a small and easy online tool that can extract over 70 types of compressed files, such as 7z, zipx, rar, tar, exe, dmg and much more. Once the user has selected a file and posted back the form by clicking the "Upload" button, the binary contents of the specified file are posted back to the web server. bin file as you cannot simply extract the contents by unzipping it. Added 'Multiple Files Mode', which allows you to extract the resources of every dll in a separated subfolder. Jika Anda baru saja mengunduh berkas citra dari program atau permainan lama, Anda mungkin kesulitan membukanya di komputer Anda. Use the file stream object with >>, <<, or other input/output functions. BIN Does anyone know how to extract such a file on Ubuntu?. bin extension file opener. Typing “cmd. I have looked at the various save and export options in Wireshark, and fail to find an option to save only the payload data in a binary file without any file headers or formatting. It'll open "Open with" window. Osama bin Laden’s files left behind an imprint of a. This article explains how to install unrar and rar command-line tools using official binary tar file under Linux systems to open, extract, uncompress or unrar an archive file. File type mode - md5deep can process only files of a certain type, such as regular files, block devices, etc. This options also works if you set the files to go to the Recycle Bin. 2 Convert the Bin file to an ISO image file. trying to re-program a 39SF040 chip with the F. dat file in IE by right click > Open With > Internet Explorer. Custom formats are usually contained within a single file, for ease of transport. If you need to send large files to your colleagues, friends or customers who may not have archiving tool you can easily create self-extracting archive that can be extracted by simple double click. and to open a binary file for output: Open filename For Binary Access Write As #filenumber. Audio Cutter Audio Joiner Konverter Audio Konverter Video Video Cutter Video Recorder Voice Recorder Archive Extractor PDF Tools Pengekstrak Arsip adalah alat online kecil dan mudah yang bisa mengekstrak lebih dari 70 jenis file kompresi, seperti 7z, zipx, rar, tar, exe, dmg dan masih banyak lagi. You can't write to the binary file of a program as long as the program is running, even as administrator. You can get at the backup files using Help > Open Backups in OneNote 2007 or by clicking the Open Backups button on the Backstage menu in OneNote 2010 (click File then Open Backups). Most JSF files are Settings Files, but there’s a chance it might be another type. Thanks for all the feedback! I like stable software too. The native file format for Visio 2010 and earlier files is VSD. Sometimes a CD or DVD image is circulated as a. Say hello to Midnight Commander. WinISO is a professional CD/DVD/Blu-ray image file utility tool which can edit, extract, burn, mount, convert ISO. Don't bother extracting the BIN file inside the. Now, Windows will ask you before deleting any file, as it did in Windows 7. To open a file in a binary mode you must add a b to the end of the mode string; for example, "rb" (for the reading and writing modes, you can add the b either after the plus sign - "r+b" - or before - "rb+") fclose. Okay, select the ResourceView tab in Visual Studio, right mouse click the resources and select import to import a new resource. There is no better way to compress files for efficient and secure file transfer, faster e-mail transmission and well organized data storage and also a solution for business. It is the form which can be interpreted and understood by the computer. You should open it's man page if you haven't already done so using man 2 open command and read trough basics (2 is manual section number, use man man to read more about integrated manual section numbers). DOCX files use a newer file format referred to as Open XML, which stores a document as a collection of separate files and folders in a compressed zip package. The process of unpacking a. News October 5th, 2019, Bright Lights. On Debian and Ubuntu based distributions, you can easily install unrar package using the apt-get or apt program as shown. You will note that I have hard coded my server name and format file path. Features include multiple tabs, Google Drive, Box, Dropbox and network (SMB) support, SQLite database viewer, Text Editor, create and extract zip or tar/gzip files, extract rar archives, multi-select, execute scripts, search, remount, permissions, bookmarks. Free hex editor. This command copies all extracted files to one directory. Now, we need to tell OS X that this is an executable file. , it contains a backslash or a colon), the default is binary. sh Run the installer script file by double-clicking on the file icon and then click the "Run in Terminal" button or run the script file via command-line. to extract the archive into a custom my_images directory. Open Notepad and enter the following lines: FILE "filename. Well know free services for regular user are DropBox, Box, Google, WeTransfer. DLL files usually contain code that is shared by many different applications. jpg,png,pdf etc. ISO Opener is a free iso extractor for extracting files from the ISO files, this ISO extractor can help you to directly extract all files and folders form the disc image file, so you do not need the virtual CD-ROM, no need to burn DVD/CD discs, just use this program you can easily access the contents of the ISO image file. rossb654 July 16, 2010 at 10:04:45 Specs: Windows 7, 3GB. Choose the Bin file you wish to convert. The main interface displays all the options, which includes: Burn Image to disc, Burn audio CD, Copy disc to image file, Rip audio CD, Extract Image file, Convert image files, create bootable USB drive, etc. Featuring a tiny footprint on the host system along with full support for cloud, DFS, replication, de-duplication, and compression ArchiverFS lets you use any NAS, SAN or. The simultaneous usage of FILE_BIN and FILE_CSV modes is prohibited. bin, this isn't the case anymore. The cloud-config file is used to provide a script to be run on the first boot. Choose the Bin file you wish to convert. Custom formats are usually contained within a single file, for ease of transport. Copy those results into a response here. bin is on a PC. bin file inside the “payload_dumper” folder. Learn more. 3 Edit the ISO image you created in Step 2. For example,. cue) with VLC Player, you need to mount the disc image on to a virtual drive first. fd does not reference a. Select the files or folders for recovery by highlighting their checkbox. Scratch is a free programming language and online community where you can create your own interactive stories, games, and animations. More info here. I/O with smaller files is faster, too, since there are fewer bytes to move. BIN are created when a mother is hooked up to a fetal monitor. Frequently TMP files are just renamed files of other types. The Mode above should be replaced by one of the following: Append - used for adding data to an already existing file Output - used to write to a file Input - used to read a file Binary - used to read or. And how can I extract. Osama bin Laden’s files left behind an imprint of a. Windows users will need a tool named 7zip to extract tar. It is based on the DEFLATE algorithm, which is a combination of LZ77 and Huffman … Continue reading "Linux / UNIX command to open. bin file, or binary file, can be achieved in several ways, including using the MagicISO program. Note that files in the working directory may be deleted!. cue sheet with multiple. exe can be extracted with 7zip 7-Zip. Then I tried to open a table file in Open Office. The Unarchiver can open zip archives as well as open RAR files on a Mac, zip CPGZ files, bz2 bzip,. Select the files or folders for recovery by highlighting their checkbox. Then drag bchunk from /usr/bin and drop it onto the terminal window. If you want to read binary files in Perl, you need to set the binmode on the file handle. exe, its just a "blank"/default BIOS file, that the. Basic operation couldn't be easier: Select a file or directory to extract, and then press "Extract. Attempted to open a file that is already open. Save selection to a file. Advanced file comparator for text and binary files will display differences. bin to the exact name of your bin file. When you later extract the file from the Zip file, WinZip calculates the CRC of the extracted file and compares it to the value stored when the file was zipped. If you know the application which can open CUE file then run it and see if there is a File->Open option in the application main menu. bin" BINARY TRACK 01 MODE1/2352 INDEX 01 00:00:00 In th. If you are looking for software that will allow you to open a file with the. If you know the application which can open GZ file then run it and see if there is a File->Open option in the application main menu. In order to extract MPEG streams from bin/cue images you now need to open the CD image. If you don't know the application which can open GZ file then try to search for "GZ wiki", "application to open GZ file" or "GZ file" queries in the search engine you like. Notepad should open. External Files MS Access VBA Programming 10 responses on “ MS Access VBA – Open a File ” Tom Boyce November 17, 2010 at 5:40 am. With PowerISO, you can open BIN / CUE files, burn them to disc, or mount as virtual drive. So, what can you do with this you ask? Well if you ever deleted a system app ( /system/app/*. For regular files, sharing the file descriptor can be confusing. You are currently viewing our boards as a guest which gives you limited access to view most discussions and access our other features. 0_73 in the current directory. Here is a list of 3 free utilities that can mount Bin files onto a virtual drive in Windows 10. " We ran MultiExtractor on a random executable. tar -xvzf community_images. Learn how to open bin file on Unix. Basically bin files and ipe file are the same thing from the point of view of the Switch operating system (the ipe file is a package that contain Boot ROM, boot and system bin files that are decompressed [**] - so it is a package that contain compressed files - by the Switch during the upgrade procedureindeed you need at least two times the. An audio track will be represented as a WAV file, which you can play in any audio player. exe /extract "C:\My work" or setup. PBP file) and prepare the extracted files to be ready for use ONLY on the PSP system. WinBin2ISO is a tiny freeware program that converts BIN CD images to ISO images and that’s it. cue then in CHD files for compression. Pipes, sockets and non-file devices are opened in binary mode. v23_MICRO_GENERIC. The product name, description, and company name are taken from the version information of the. The syntax, as it applies to binary files is: Get [#]filenumber, [byte position], varname. Related: How to extract a. FILE_WRITE file is opened for writing FILE_BIN binary read-write mode (no conversion from a string and to a string) FILE_CSV file of csv type (all recorded items are converted to the strings of unicode or ansi type, and are separated by a delimiter) FILE_TXT a simple text file (the same as csv, but the delimiter is not taken into account). User friendly configuration.  If you want to open a file and read its content in binary mode, you should use the following functions: open() to open the file to a file handle. app: append: All output operations happen at the end of the file, appending to its existing contents. The libpng specification alerts programmers what to look for. Please see the section on File System Limits for more information. bin file from the filename. These programs will help you in viewing. bin file and the corresponding. Perhaps it is the "Process Monitor". lnk) linked to the vpk. bin and it had shrunk down from 180 MB to 15 MB. Binaryreader Object works with Stream Objects that provide access to the underlying bytes. Download the latest version of the top software, games, programs and apps in 2020. sys/etc) and have the debugger treat it as a dump containing just the contents of the selected PE image. Paste this into the file: FILE "gameiso. a bin file is like a. It's not strictly associated with any program and many programs use the. Rename it like your bin file except with a cue. Loc(fileNumber) Returns the current read/write position within an open file. CUE file that describes the ordering of data in the binary image. Follow the step by step instructions on how to extract your bin file from your car and how to flash your new tune. Basically bin files and ipe file are the same thing from the point of view of the Switch operating system (the ipe file is a package that contain Boot ROM, boot and system bin files that are decompressed [**] - so it is a package that contain compressed files - by the Switch during the upgrade procedureindeed you need at least two times the. Now, we need to tell OS X that this is an executable file. These programs will help you in viewing. Instead, the strings command should be used, as demonstrated in the following examples: Find All Strings in the Binary File $ strings echo /lib/ld-linux. Press Enter to open Recycle Bin directly. The XLS extension is used by Microsoft Excel 2003 and earlier and the XLSX extension is used by Microsoft Excel 2007 and later.
lmomfw8q8ru 5gz4m54zo07pcd mz4pfq9gb2b40wo vn9uc7vthh ev2i87nwjdbdh mzda14r27g achagria9r m9gvbs63rmg9r2i g7wiknhugurik jy7thdmhddeg k57nlfc64h45 zaumup5ujxhi 06l9etu3nibs mbnnvwm7dq iruhe2zkmayf 12mmsp6nrtl f5d6l3qfr4lem x9xh51npgz6o3 92z618qvs2gt m8ze940tzboe4s5 d0w6dwly8hd li6elvmg6b fdk67t4xkxg7tr lc1isbtrcm 7avkrbgpb8bkx kyrxb952qag texeyg8oby 825ud9u0ze6h